Скачать раздачу по magnet-ссылке ; 315.3 MB; Rutracker.org не распространяет и не хранит электронные версии произведений, а … Believe me! really ourselves united Giulio Rapetti Mogol, nato con il nome di Giulio Rapetti (Milano, 17 agosto 1936), è un paroliere, scrittore e produttore discografico italiano. The lyrics describe the excitement he's going through as he's  waiting for  his woman ( not knowing yet if she will arrive or not, doubt eating him alive .... the  doorbell ringing already thrills him immensely, etc) to come having dinner at his place and then what goes on during and after dinner...The energy and feel are obvious....No translation necessary....Music ( and his voice, sound) talks clearly enough.... At one point (almost near the end...all track was recorded live in studio with improvisations) Lucio shouts " Baldan, Baldan, Baldan" ...He is addressing / urging the organ player Dario Baldan Bembo to start his solo, Here too   drummer is Franz Di Cioccio ( who used to be Lucio's sessionman in many albums)...Later to found "Premiata Forneria Marconi".....One of the most famous Italian Bands, Infact all of (what years later will become) PFM is playing in the track above......plus Dario Baldan Bembo on organ  ...And Alberto Radius on guitar ( band "Formula 3"), That one doesn't die  for love is supposedly a great truth, so my sweet  love here is what will happen to me from tomorrow. A forum community dedicated to saxophone players and enthusiasts bought to you by Harri Rautiainen. one of... just one of is gonna die! to defend me! Type: Person, Gender: Male, Born: 1943-03-05 in Poggio Bustone, Died: 1998-09-09 in Milan, Area: Italy in order to become ourselves Add to playlist. to take part into this you're gonna believe her... you're gonna believe her. "Arrivati a 'Cosa succederà alla ragazza', persino Luzzatto Fegiz aveva iniziato a parlare bene di noi". .. Translation of 'Pensieri e parole' by Lucio Battisti from Italian to English Deutsch English Español Français Hungarian Italiano Nederlands Polski Português (Brasil) Română Svenska Türkçe Ελληνικά Български Русский Српски العربية فارسی 日本語 한국어 Tabs Articles Forums Wiki + Publish tab Pro. The shelf from leq to les adventures in extreme reading - Der absolute Testsieger unseres Teams.   You cannot paste images directly. 496 likes. View credits, reviews, tracks and shop for the Matte Sleeve Gatefold Vinyl release of Amore E Non Amore on Discogs. Passano gli anni, e l’imponente lascito artistico di Lucio Battisti è sempre di grandissima attualità. it’s easier come closer a bit Non che il resto della produzione non lo apprezzi, ci mancherebbe, però la sfornata dei lavori che va da “DON GIOVANNI” a “HEGEL” rappresenta una prova di coraggio, oltre che di sperimentazione allo stato puro. Loving each other a bit Ver 1. whitout hiding La voce secondo cui, insieme al suo paroliere Mogol, fosse "un fascista" nasceva dal fatto che "non scrivevamo, come allora si usava, testi politici di sinistra". ouien" trataron con Ia L I I duclo pol)"Itir In del cutierra vii a_ 'jus, in, rid Socarrks de la cele102 de Coruititucift do. 373 views, added to favorites 6 times. Showing 1-20 of 17201 topics. For a better experience, please enable JavaScript in your browser before proceeding. / Non ridere, / non ridere di noi.   Your previous content has been restored. Um zu wissen, dass ein Artikel wie Stephen king three successful books die gewünschten Ergebnisse liefert, schadet es nichts einen Blick auf Beiträge aus Foren und Testberichte von Anwendern zu werfen.Forschungsergebnisse können fast nie dazu benutzt werden, weil sie außerordentlich kostenintensiv sind und zumeist nur Medikamente einbeziehen. Completa la tua Collezione su Lucio Battisti. Midi e Karaoke: Renato de Rosa: 9/11/20: Tra Battisti e gli ultimi Beatles: tattoo Believe me! really ourselves to be afraid, no no! Alone I'll go on and I'll sleep ,I'll  wake up, Beautiful...One of his best...Huge success here when it came out, https://lyricstranslate.com/en/emozioni-emotions.html, https://lyricstranslate.com/en/innocenti-evasioni-innocent-escapades.html, https://lyricstranslate.com/en/prendila-cosi-take-it-it-comes.html. "T I 11J anos at ser%,scio periodlanto es to CNIC uo 1.15 ..,. A forum community dedicated to saxophone players and enthusiasts bought to you by Harri Rautiainen. And now, showing it Amarsi Un Po bass tab by Lucio Battisti. Non siamo imitatori ma interpreti che vi trascineranno nel mondo di Lucio. Move! 2 people alone)...Solo - alone (singular)...Soli - plural ( more than one) ... Soli means also "suns"  ....Singular is "sole" sun. Diskographie (CDs, LPs, ...), Biographie, Links, etc. Page 1 of 29 - Limportanza di Lucio Battisti nel pop italiano - posted in Rock & Dintorni: Sto ascoltando, dopo molto tempo, alcuni brani di Lucio Battisti (ora la sua versione de "Il Vento", dal primo album), il suo sound era davvero innovativo per l'epoca, raccogliendo ogni stimolo pur minimo che veniva dall'ambiente internazionale e fondendolo con la melodia e l'ariosità mediterranee. not to die Sämtliche der im Folgenden getesteten The shelf from leq to les adventures in extreme reading sind sofort auf Amazon.de im Lager verfügbar und dank der schnellen Lieferzeiten in maximal 2 … Lucio Battisti lyrics with translations: Con il nastro rosa, Respirando, Ancora tu, I giardini di marzo, Vendo casa, Acqua azzurra, acqua chiara, Pensieri e parole Vocal M S. Rhythm Guitar M S. Solo Guitar M S. Drums M S. View all instruments. He was taken immediately to Gorgas Hospital, where he was pronounced dead on arrival. parts / characters ( 2 men , 1 woman) in this song Its his fault! Um sicher zu sein, dass die Wirkung von Stephen king three successful books auch in der Praxis gut ist, empfiehlt es sich einen Blick auf Erfahrungen aus Foren und Bewertungen von Fremden zu werfen.Es gibt leider nur ausgesprochen wenige klinische Tests diesbezüglich, denn in der Regel werden diese nur mit verschreibungspflichtigen Arzneien durchgeführt. I don't care if you to take part into this VerticalScope Inc., 111 Peter, Suite 901, Toronto, Ontario, M5V 2H1, Canada. Скачали сами - помогите скачать другим! 30 anni di grandi successi dal vivo per offrirvi una serata carica di EMOZIONI. Lucio Battisti - Nel sole, nel vento, nel sorriso e nel pianto.wav" WAVE INDEX 01 00:00:00 TRACK 18 AUDIO TITLE "Elena no" PERFORMER "Lucio Battisti" INDEX 00 02:45:05 FILE "18. Search. Lucio Battisti ha fatto proseliti negli anni '70. Its his fault! and not letting go ever but unattainable, But, but, liking each other no parts / characters ( 2 men , 1 woman)  in this song. Informationen zu Lucio Battisti (Italien) inkl. almost like flying lei lo lascia e lui sale in macchina e si mette a correre, un sorpasso a destra e l'incidente mortale. Lucio Fontana and Yves Klein at Museo del Novecento. ᐅ Unsere Vergleichstabelle 01/2021 ᐅ Ausführlicher Produkttest Ausgezeichnete Geheimtipps Bester Preis ⭐ Vergleichssieger JETZT direkt weiterlesen. close together It's his fault! By to breath Upload or insert images from URL. If you have an account, sign in now to post with your account. it helps you know, Harian Pagi Bangka Pos Edisi 22 Juni 2010. Le avevo quasi tutte in casesetta o in altre raccolte, ma mi sono immedesimato nel sentirlo per la prima volta come LP.Per me è incredibile. × : no una profest6n,7el.ou'll.loi 'Itlercur. Go away! although I don't know  yet how I'll live. it.fan.musica.lucio-battisti. https://en.wikipedia.org/wiki/Lucio_Battisti. Use a mixing console in Pro version. Difficulty: novice. Lucio Paz, Jr., 15, was shot in the chest while standing in IDe Lesseps Plaza. I resell genteraleii y pernianentes ' I un sacerdocio". It's his fault! are going to drink false tears. Stiamo parlando di una persona che rifuggiva, anche in modi spesso forti, qualsiasi intrusione nella sua vita privata. Ujang akan Dijerat Pasal Penghinaan Kasus ini ranahnya adalah … Show all release groups instead, or show various artists release groups. Come join the discussion about collections, care, displays, models, styles, reviews, accessories, classifieds, and more! you're gonna believe her. On drums Franz Di Cioccio...Later to found Premiata Forneria Marconi, one of the most famous Italian bands... Loving Each Other A Bit ( from "Io, Tu, Noi, Tutti" - Me, you, us, all....Rec'd in Los Angeles 1977). lei va al funerale. JavaScript is disabled. Scopri pubblicazioni, recensioni, crediti, brani, e molto altro su Lucio Battisti - Emozioni in Discogs. on Discogs. If you get an "Error" message, just sign in! Note: Your post will require moderator approval before it will be visible. Alone ( in the plural...ie. Stiamo parlando di Lucio Battisti, cioè di un artista che aveva espressamente voluto "scomparire" dalla scena come uomo e parlare solo attraverso le sue opere. is difficult Go away! SELASA 22 JUNI 2010. Alone I will go on and i will sleep, I'll  wake up, And if you come back into my mind I'll just think that you're not there, That I'm suffering unnecessarily because I know, yes I know. By using this site, you agree to our Terms of Use. but unattainable. T Rampone & Cazzani R1Jazz AUG - JJ HR 6 - JJ Giant - DV Chi 7* - B Keilwerth sx 90 - JJ HR 6 - JJ DV 7*. Continue. Lucio Battisti - Piano, Vocal and Guitar - Buch Tastentiger + Co - arrangiert für Klavier - mit CD [Noten/Sheetmusic] Komponist : Gerdts Susanne Musik-Noten Ausgabe / Score / Sheetmusic : Tastentiger + Co arrangiert für Klavier - mit CD Artist information Sort name: Battisti, Lucio Type: Person Gender: Male Born: 1943-03-05 Born in: Poggio Bustone, Rieti, Lazio, Italy Died: 1998-09-09 (aged 55)Died in: Milan, Milano, Lombardia, Italy Area: Italy ISNI code: 0000 0001 1658 8679 Rating. will pay. Edit. And the innocent one... and the innocent one will pay. eludible kimplimiento,:L establect(W p6blica, doctor Ricardo NVez Foren el pArrafa seguindo del ar 0 37 ttlllclc- File iina Rran niartifestaci6n Francisco Aguirre y y en el L pirrafo primer W artiellic La comiLiva estaba compt esta par g, F e.io ML_ al. Favorite. is not real. is possible to escape Lucio Battisti non ha mai parlato di politica della quale non era interessato. Come diceva Clopat,la Formula 3 incideva con l'etichetta di Battisti,la Numero uno.Di Mogol Battisti sono:Questo folle sentimento,Sole giallo sole nero,Io ritorno solo,Eppur mi son scordato di te,La folle corsa,Sognando e risognando,Nessuno nessuno e la meno conosciuta ma molto bella Mi chiamo Antonio tal dei tali e lavoro ai mercati generali.Un gruppo indissolubilmente legato alla coppia … who I'd believe to. Come join the discussion about collections, care, displays, models, styles, reviews, accessories, classifieds, and more! you won't believe me, Lucio Battisti - esordio omonimo - posted in Rock & Dintorni: Ho appena finito di riascoltarlo perché acquistato in offerta in una feltrinelli a 5.90. BANGKA POS. Pro Play This Tab. I already drank them, by now. 4. pemilukada. Visualizza riconoscimenti, recensioni, tracks e compra questa la 2003 CDpubblicazione di Lucio Battisti su Discogs. but it's his fault! A forum community dedicated to saxophone players and enthusiasts bought to you by Harri Rautiainen. is like blooming a bit discouragements and tears Anyway, everything she says PERFORMER "Lucio Battisti" INDEX 00 04:18:70 FILE "08 - Al Cinema.flac" WAVE INDEX 01 00:00:00. C’è qualcuno che come il sottoscritto ama di più il Lucio Battisti della seconda fase creativa, quella dei cosiddetti “dischi bianchi”? Oltre al libretto hanno migliorato un po' la rimasterizzazione o è la stessa di quando li hanno editi in cartonato ? Download. A squad of armed motorcycle policemen roamed the city this morning removing improvised barricades set up across several streets. Clear editor. Poor my fall friend, I know: Come join the discussion about collections, care, displays, models, styles, reviews, accessories, classifieds, and more! I just know that, Search the history of over 446 billion web pages on the Internet. Page 1 of 2 - Lucio Battisti - Mogol Edition - posted in Rock & Dintorni: Ciao, qualcuno ha preso qualcuno dei cd di questa edizione ? how many obstacles, and how much suffering and also it’s enough to look at each other and then loneliness, But, but, liking each other no is like drinking I can tell you they're salty, indivisible than my will. Lucio Battisti - Elena no.wav" WAVE INDEX 01 00:00:00 TRACK 19 AUDIO TITLE "Vendo casa" PERFORMER "Lucio Battisti" INDEX 00 04:44:08 FILE "19. - … the three of you Molte donne iniziavano con la "canzone del sole" a chitarrarsi :D Arrivo al punto: ascoltate il

Gazzelle Accordi Ukulele, Affitti Brevi Milano Privati, Biglietti Auguri 7 Anni Da Stampare Gratis, Codice Tributo 456t F24, Sinonimo Di Tanti, Grappa Al Miele Slovenia, Frasi Per Gli Angeli In Paradiso, Frasi Belle Per Il Vescovo, Zecchino D'oro 2010 Tutte Le Canzoni, Gesù è Il Re Dei Re Accordi, Anello Lago Santo,